Your IP Address is . Location is Your ISP and Government can track your torrent activity! Hide your IP with a VPN!

Missing 2018 Pre DVD Hindi GOPISAHI

DOWNLOAD TORRENT DOWNLOAD PROTECT YOUR PRIVACY

Posted by gopisahi •863 on April 16, 2018 in Movies » Drama , verified torrent

Size: 276.62 MB , Seeds: 18 , Peers: 3 ( Updated April 17, 2018 - Refresh )

* Download via Magnet Link , * To download files you need a Bittorrent Client , * How to download torrents from Bit Torrent Scene?

Scrape History ( seeds + peers )

Internal Files

Missing 2018 Pre DVD Hindi GOPISAHI.mkv
Missing 2018 Pre DVD Hindi GOPISAHI.mkv   276.62 MB

Hash Code

1b0920bc9d3c136f20bca7359246c50671c9b0ab

Description

SCREENSHOT
Format : Matroska
Format version : Version 4 / Version 2
File size : 277 MiB
Duration : 1 h 47 min
Overall bit rate : 359 kb/s
Movie name : Missing 2018 GOPISAHI

Video
Format : AVC
Codec ID : V_MPEG4/ISO/AVC
Duration : 1 h 47 min
Bit rate : 300 kb/s
Width : 622 pixels
Height : 272 pixels
Display aspect ratio : 2.25:1
Frame rate mode : Constant
Frame rate : 25.000 FPS
Color space : YUV
Chroma subsampling : 4:2:0
Bit depth : 8 bits
Scan type : Progressive
Bits/(Pixel*Frame) : 0.071
Stream size : 231 MiB (84%)
Title : GOPISAHI
Writing library : x264 core 155 r2893 b00bcaf

Audio
Format : AAC
Duration : 1 h 47 min
Bit rate : 56.5 kb/s
Channel(s) : 2 channels
Channel positions : Front: L R
Sampling rate : 44.1 kHz
Frame rate : 43.066 FPS (1024 SPF)
Compression mode : Lossy
Stream size : 43.6 MiB (16%)
Title : GOPISAHI
Language : Hindi
SCREENSHOT
SCREENSHOT
SCREENSHOT
SCREENSHOT
SCREENSHOT

Trackers

Refresh Leechers : Updated April 17, 2018

1. udp://9.rarbg.com:2740/announce

2. udp://9.rarbg.to:2800/announce

3. udp://inferno.demonoid.pw:3391/announce

4. udp://tracker.leechers-paradise.org:6969/announce

5. udp://tracker.coppersurfer.tk:80/announce

6. udp://tracker.coppersurfer.tk:6969/announce

7. udp://tracker.opentrackr.org:1337/announce

8. udp://p4p.arenabg.com:1337/announce

9. UDP://EDDIE4.NL:6969/ANNOUNCE

10. udp://tracker.pirateparty.gr:6969/announce

11. udp://tracker.tiny-vps.com:6969/announce

12. udp://public.popcorn-tracker.org:6969/announce

13. udp://tracker.torrent.eu.org:451/announce

14. http://jiotorrents.net/announce.php?pk=e4f8706d012352e15d86ef04d6a7c6d0f5588489

Comments

You must log in to add a comment.

Embed Code

Sharing Widget

Related torrents

FILENAME SIZE SEEDS PEERS ADDED UPD
[i] Missing 2018 Hindi NEW 720p PreDVDRip x264 [MW]
posted by moviefreak in Movies - Thriller
1.01 GB 102 77 5 days 4 days
[i] Missing 2018 Hindi 720p PreDVDRip x264 AAC [MW]
posted by moviefreak in Movies - Thriller
928.17 MB 55 36 5 days 4 days

Top Movies ( auto generated report )

FILENAME SIZE SEEDS PEERS ADDED UPD
[i] Tremors.A.Cold.Day.in.Hell.2018.DVDRip.XviD.AC3-EVO 1.43 GB 90 100 18 hours 15 hours
[i] downloadhub in Sonu Ke Titu Ki Sweety (2018) Hindi 720p HDRip x264 AAC ESubs - Downloadhub 1.06 GB 87 299 18 hours 15 hours
[i] Tremors A Cold Day in Hell.2018.DVDRip.XviD.AC3-EVO 1.43 GB 78 159 20 hours 17 hours
[i] Seven.Years.of.Night.2018.720p.HDRip.Ganool 900.3 MB 70 83 20 hours 14 hours
[i] Bleeding Steel.2017.HDRip.XviD.AC3-EVO 1.38 GB 90 108 12 hours 10 hours
[i] Early.Man.2018.READNFO.HDRip.XviD.AC3-iFT[N1C] 1.3 GB 36 42 20 hours 14 hours
[i] Bleeding.Steel.2017.HDRip.AC3.X264-CMRG[EtMovies] 1.58 GB 44 40 14 hours 11 hours
[i] Bleeding Steel.2017.HDRip.XviD.AC3-EVO[EtMovies] 1.38 GB 32 24 16 hours 14 hours
[i] The.Debt.Collector.2018.BDRip.x264-RUSTED[N1C] 643.2 MB 31 9 22 hours 17 hours
[i] Sonu Ke Titu Ki Sweety (2018) AMZN HDRip 720p Hindi H 264 ACC - LatestHDMovies mkv 1.3 GB 30 327 14 hours 12 hours